Chhichhore 2019 Hindi torrent

Chhichhore 2019 Hindi torrent

Chhichhore 2019 Hindi

Seeds: 49 Peers: 30

Health

DOWNLOAD

=================================================== ========== ======

Total

Full name: Chhichhore 2019 Hindi 720p pre-DVD Rip x264 AAC {TaRa} .mkv

Format: Matroska

Version format: 4th edition

File Size: GiB

Duration: 2 18 min

Minimum bit rate: 1158 kbps

=================================================== ========== ========

Video

ID: 1

Format: AVC

Format / information: High quality video codec

Structure profile:

Format configuration: CABAC / 4 Mysteries

Format settings, CABAC: Yes

Layout of the structure, memory: 4 images

Codec ID: V_MPEG4 / ISO / AVC

Duration: 2 18 min

Bit rate: 1000 kb / s

Width: 1280 pixels

Height: 544 pixels

Flash display :: 1

Chapter status: regular

Chapter Period: (23976/1000) FPS

Color space: YUV

Chrome Championship: 4: 2: 0

Depth: 8 bits

Type of scanning: in progress

Bits / (pixel frame *):

Stream size: 988 MiB (86%)

Title: ….. ::::: TaRa ::::: ….. …..

Writing library: No. 132 264

Language: Hindi

Optional: yes

Required: no

=================================================== ========== ========

Voice

ID: 2

Format: AAC LC

Format / Information: Audio conversion without advanced codec

Codec ID: A_AAC-2

Duration: 2 18 min

Bit rate: 158 kb / s

Channel (s): 2 channels

Design of installations: L R

Sampling speed: kHz

Chapter time: FPS (1024 SPF)

The way to grow: the loss

Video delay: -84 ms

Stream size: 156 MiB (14%)

Title: ….. ::::: TaRa ::::: ….. …..

Language: Hindi

Optional: yes

Required: no

=================================================== ========== ========

Share this post

Leave a Reply

Your email address will not be published. Required fields are marked *